<?xml version="1.0" standalone="no"?>
<!DOCTYPE svg PUBLIC "-//W3C//DTD SVG 1.1//EN" "http://www.w3.org/Graphics/SVG/1.1/DTD/svg11.dtd" >
<svg xmlns="http://www.w3.org/2000/svg">
<metadata>Generated by IcoMoon</metadata>
<defs>
<font id="KU" horiz-adv-x="1024">
<font-face units-per-em="1024" ascent="860.8406647116325" descent="-163.15933528836754" />
<missing-glyph horiz-adv-x="1024" />
<glyph unicode="&#x20;" horiz-adv-x="0" d="" />
<glyph unicode="&#x61;" glyph-name="arrow" horiz-adv-x="628" d="M128.32 35.301c0 0 202.312 329.464 202.312 329.464s-202.312 329.464-202.312 329.464c0 0 167.636 0 167.636 0s202.312-329.464 202.312-329.464c0 0-202.312-329.464-202.312-329.464s-167.636 0-167.636 0c0 0 0 0 0 0" />
<glyph unicode="&#x62;" glyph-name="vimeo" horiz-adv-x="790" d="M426.367 482.714c14.392 84.296 92.52 133.641 157.285 133.641 48.316 0 88.408-26.728 88.408-88.408 0-8.224 0-18.504-2.056-28.784-32.896-180.93-208.686-333.075-264.199-365.971-13.364-9.252-26.728-12.336-39.064-12.336-38.036 0-69.904 34.952-82.24 62.708-22.616 39.064-82.24 266.255-98.688 285.787-2.056 3.084-7.196 5.14-11.308 5.14-19.532 0-51.4-24.672-51.4-24.672l-26.728 29.812s92.52 115.136 171.677 131.585c4.112 1.028 8.224 2.056 12.336 2.056 66.82 0 67.848-127.472 86.352-196.35 16.448-72.988 29.812-115.136 46.26-115.136s46.26 39.064 79.156 101.772c10.28 17.476 14.392 33.924 14.392 48.316 0 25.7-15.42 44.204-40.092 44.204-11.308 0-24.672-4.112-40.092-13.364z" />
<glyph unicode="&#x63;" glyph-name="coursera" horiz-adv-x="777" d="M760.667 366.548c0-101.772-80.184-182.986-184.014-182.986-55.512 0-107.94 22.616-147.005 61.68-13.364 10.28-23.644 19.532-33.924 32.896l53.456 72.988c19.532-19.532 30.84-42.148 52.428-59.624 19.532-17.476 44.204-26.728 70.932-26.728 53.456 0 93.548 39.064 97.66 86.352 0 26.728-7.196 52.428-23.644 71.96s-42.148 32.896-68.876 32.896c-32.896 0-63.736-13.364-86.352-35.98-16.448-19.532-32.896-40.092-49.344-62.708-19.532-26.728-39.064-55.512-58.596-82.24-40.092-47.288-98.688-98.688-174.761-98.688-106.912 0-193.266 74.016-193.266 187.098 0 107.94 84.296 186.070 189.154 186.070 51.4 0 101.772-18.504 138.781-53.456l13.364-13.364v-3.084l-52.428-76.072-13.364 13.364c-16.448 16.448-33.924 29.812-56.54 35.98-10.28 5.14-21.588 7.196-32.896 7.196-57.568 0-96.632-46.26-96.632-101.772 0-49.344 45.232-90.464 93.548-90.464 71.96 0 107.94 58.596 138.781 102.8 19.532 29.812 35.98 55.512 55.512 82.24 33.924 53.456 96.632 102.8 174.761 102.8h11.308c102.8 0 181.958-87.38 181.958-189.154z" />
<glyph unicode="&#x64;" glyph-name="padlock" horiz-adv-x="771" d="M704.191 405.62h-638.142v-465.413h638.142v465.413zM425.101 153.718v-134.347h-80.767v134.347c-40.782 22.39-55.975 73.567-33.585 113.558s73.567 55.975 113.558 33.585 55.975-73.567 33.585-113.558c-7.197-14.393-18.392-26.389-32.785-33.585zM243.576 448.001c0 7.197-1.601 82.364 0.801 111.158 6.396 66.37 69.568 120.755 141.544 122.352 66.37 0.801 124.752-48.778 139.145-118.354 5.596-27.187 2.398-107.16 2.398-115.155h110.359c0 6.396 2.398 116.756-10.395 163.934-29.587 103.961-128.75 177.527-241.497 179.926-105.561 1.601-202.315-67.168-239.898-171.93-17.591-47.978-13.593-165.532-13.593-171.93h111.158z" />
<glyph unicode="&#x65;" glyph-name="exclamation" d="M467.347 620.85c32.303 0 61.013 0 93.317 0 0-116.639 0-233.275 0-351.708-30.508 0-61.013 0-93.317 0 0 116.639 0 233.275 0 351.708zM467.347 229.653c32.303 0 62.809 0 93.317 0 0-32.303 0-62.809 0-95.107-32.303 0-62.809 0-93.317 0 0 32.303 0 62.809 0 95.107zM899.814 367.83c0-213.535-174.058-387.601-385.809-387.601-213.535 0-385.809 172.262-385.809 385.809s170.465 384.013 385.809 385.809c209.954 1.797 385.809-172.262 385.809-384.013zM813.678 366.034c0 166.888-132.789 299.673-299.673 299.673-165.092 0-299.673-132.789-299.673-297.882 0-166.888 130.994-299.673 297.882-301.462s301.462 132.789 301.462 299.673z" />
<glyph unicode="&#x66;" glyph-name="facebook2" horiz-adv-x="948" d="M531.996-146.942h-134.669v333.075h-112.052v128.5h115.136v95.604c0 112.052 69.904 171.677 168.593 171.677 9.252 1.028 19.532 1.028 28.784 1.028 23.644 0 46.26-3.084 69.904-5.14v-118.22h-69.904c-55.512 0-65.792-26.728-65.792-62.708v-82.24h128.5l-16.448-128.5h-112.052v-333.075z" />
<glyph unicode="&#x67;" glyph-name="stetoskop" horiz-adv-x="941" d="M200.639 867.479h0.003c12.294-0.030 22.254-9.993 22.278-22.291v-48.783c-0.036-12.282-9.985-22.231-22.27-22.267-42.966 0-74.166 4.975-93.487 14.546l-0.369-0.070c-24.577-5.534-42.955-27.441-43.079-53.673 0-186.146 60.387-303.813 137.638-354.020 4.723-3.044 9.529-5.835 14.388-8.396 35.431 38.464 112.021 38.474 147.462 0 4.859 2.508 9.676 5.321 14.399 8.396 77.283 50.207 137.67 167.874 137.67 354.020v0.003c-0.029 27.194-19.776 49.77-46.040 54.244-19.206-9.897-50.732-15.050-94.452-15.050h-0.001c-12.302 0.012-22.275 9.97-22.311 22.27v48.782c0.024 12.295 9.984 22.259 22.281 22.289 39.744 0 70.997-5.079 91.168-14.525 62.318-2.949 112.546-55.045 112.546-118.013 0-210.094-73.054-346.096-166.552-406.839l0.907 0.561c-9.637-6.346-19.758-12.019-31.771-17.572-3.778-30.624-22.333-69.055-63.263-115.306v-79.065c0.041-55.721 22.716-106.146 59.337-142.584 79.109-79.099 245.073-94.463 324.183-15.354l0.008 0.008c36.611 36.432 59.286 86.856 59.329 142.584v282.309l-0.999 0.202c-64.359 15.45-112.19 73.377-112.19 142.474 0 80.919 65.598 146.517 146.517 146.517s146.517-65.598 146.517-146.517c0-70.347-49.576-129.114-116.657-143.442v-281.54c-0.039-73.166-29.79-139.384-77.85-187.25-103.772-103.793-309.7-88.439-413.493 15.354l-0.009 0.009c-48.057 47.853-77.81 114.073-77.841 187.249v86.614c-36.375 42.903-53.146 78.805-56.724 107.749l-1.478 0.623c-10.524 4.932-20.634 10.6-29.355 16.379-93.497 60.743-166.552 196.745-166.552 406.839 0 61.74 47.867 112.734 108.379 117.741 20.15 9.623 51.613 14.797 91.735 14.797zM794.001 609.76c-0.003 0-0.007 0-0.010 0-46.033 0-83.349-37.316-83.349-83.349s37.316-83.349 83.349-83.349c46.033 0 83.349 37.316 83.349 83.349 0 0.004 0 0.007 0 0.011v-0.001c0 0.003 0 0.007 0 0.010 0 46.021-37.307 83.328-83.328 83.328-0.004 0-0.007 0-0.011 0h0.001z" />
<glyph unicode="&#x68;" glyph-name="mail" horiz-adv-x="1396" d="M1323.661 853.741c45.808 0 60.839-15.031 60.839-61.555 0-292.503 0-585.245 0-877.748 0-46.762-14.792-61.555-60.6-61.555-418.475 0-836.712 0-1255.187 0-46.047 0-60.6 14.554-60.6 61.555 0 292.503 0 585.245 0 877.748 0 47.717 14.315 61.555 62.747 61.555zM172.019 758.785c177.506-173.45 350.718-342.606 524.406-512 174.882 171.064 347.855 339.981 523.929 512-351.433 0-697.141 0-1048.336 0zM167.963-50.967c353.819 0 703.344 0 1056.447 0-114.759 119.053-226.416 235.005-345.469 358.352-49.148-52.727-95.433-103.784-144.104-152.693-10.498-10.498-28.63-17.894-43.422-18.132-11.929-0.239-26.483 10.021-36.265 19.325-49.864 47.478-98.535 95.911-148.399 145.059-112.85-117.383-224.268-233.096-338.788-351.911zM102.352 16.552c114.52 118.576 225.461 233.335 337.596 349.525-113.089 109.987-223.791 217.827-337.596 328.529 0-227.847 0-449.968 0-678.054zM1290.259 694.844c-114.52-111.418-225.7-219.735-337.596-328.768 113.089-116.906 223.791-231.426 337.596-349.286 0 228.086 0 450.445 0 678.054z" />
<glyph unicode="&#x69;" glyph-name="instagram" horiz-adv-x="762" d="M602.441 641.394c30.038-3.337 50.066-30.038 53.403-63.417v-433.9c-6.676-30.038-33.378-53.402-63.417-53.402h-430.562c-26.701 6.676-46.728 23.364-53.403 50.066-3.336 3.336-3.336 6.676-3.336 10.014v433.9c3.336 23.364 23.364 46.728 46.728 53.402 3.337 3.337 10.014 3.337 13.351 3.337h437.238zM378.816 474.509c-56.74 0-103.469-46.728-106.806-106.806 0-60.080 50.066-106.806 106.806-106.806 60.079 0 106.806 46.728 106.806 106.806s-50.067 106.806-106.806 106.806zM382.153 197.48c-92.004 0-171.84 76.607-171.84 168.106 0 14.028 1.67 28.199 4.956 42.169h-46.729v-230.301c3.337-10.014 13.351-20.027 23.365-20.027h383.835c10.014 0 16.687 10.014 16.687 20.027v233.638h-46.728c3.815-15.258 5.723-30.516 5.723-45.46 0-37.365-11.922-72.788-35.761-101.397-30.038-43.389-80.105-66.754-133.507-66.754zM592.428 494.535v60.079c0 10.014-10.014 20.027-20.027 20.027h-63.417c-10.014 0-20.027-10.014-20.027-20.027v-63.416c0-10.014 10.014-20.027 20.027-20.027h63.417c10.014 3.336 20.027 13.35 20.027 23.364z" />
<glyph unicode="&#x6b;" glyph-name="ku-logo" horiz-adv-x="561" d="M556.872 544.43c0-113.744-92.26-205.903-205.803-205.903-113.844 0-206.004 92.16-206.004 205.903s92.16 206.104 206.004 206.104c113.544 0 205.803-92.36 205.803-206.104zM197.671 243.757c0-53.911-43.772-97.68-97.68-97.68s-97.68 43.772-97.68 97.68c0 54.012 43.772 97.68 97.68 97.68 54.012 0 97.68-43.772 97.68-97.68zM402.169 34.542c0-28.108-22.988-51-51-51-28.108 0-51.1 22.788-51.1 51s22.888 51 51.1 51c27.908 0 51-22.888 51-51z" />
<glyph unicode="&#x6c;" glyph-name="linkedin2" horiz-adv-x="612" d="M27.695 75.159v387.445h119.841v-387.445h-119.841zM87.034 656.909c37.231 0 70.973-30.251 70.973-70.973s-30.251-70.973-70.973-70.973-70.973 30.251-70.973 70.973 33.742 70.973 70.973 70.973zM221.999 75.159l-4.656 387.445h116.351v-52.357c20.941 38.394 60.502 63.991 105.878 63.991h9.308c123.33 0 145.439-81.445 145.439-186.16v-212.921h-118.678v186.16c0 48.869-4.656 104.715-63.991 104.715s-70.973-48.869-70.973-101.226v-189.651h-118.678z" />
<glyph unicode="&#x6d;" glyph-name="radio-button" horiz-adv-x="960" d="M484.898-1.503h-10.24c-55.567 0-109.617 10.811-160.539 32.143-49.12 20.577-93.307 50.068-131.426 87.617-38.025 37.552-68.083 81.358-89.419 130.194-21.903 50.447-33.475 104.116-34.231 159.59v0.949c0.759 55.567 12.328 109.429 34.326 160.064 21.242 48.93 51.3 92.737 89.325 130.382s82.308 67.134 131.426 87.712c50.826 21.336 104.876 32.143 160.442 32.143h5.405v-0.094h4.932c55.567 0 109.617-10.811 160.539-32.143 49.12-20.577 93.307-50.068 131.426-87.617 38.025-37.552 68.083-81.358 89.325-130.194 21.997-50.541 33.57-104.214 34.326-159.684v-0.949c-0.759-55.567-12.328-109.429-34.326-159.97-21.242-48.93-51.3-92.737-89.325-130.288-38.119-37.646-82.308-67.134-131.426-87.712-50.921-21.336-104.876-32.143-160.539-32.143zM123.712 408.516c1.42-92.454 38.501-179.218 104.403-244.172 66.093-65.24 153.618-101.085 246.449-101.085h10.24c92.832 0 180.356 35.937 246.449 101.18 65.901 65.144 102.98 152.003 104.497 244.742-1.42 92.454-38.596 179.218-104.403 244.172-66.093 65.24-153.618 101.085-246.449 101.085h-5.12v0.094h-5.214c-92.832 0-180.356-35.937-246.355-101.18-65.996-65.144-103.075-152.098-104.497-244.836z" />
<glyph unicode="&#x6f;" glyph-name="conversation" horiz-adv-x="671" d="M649.377 375.8v-10.28c0-112.052-92.52-203.546-204.574-203.546h-144.949c-43.176 0-85.324 12.336-121.304 39.064l-158.313-49.344 108.968 101.772c-22.616 32.896-32.896 72.988-32.896 112.052v10.28c0 112.052 91.492 204.574 203.546 204.574h151.117c112.052 0 198.406-91.492 198.406-204.574zM444.803 504.302h-148.033c-59.624 0-108.968-49.344-108.968-108.968v-46.26c0-62.708 49.344-112.052 112.052-112.052h149.061c62.708 0 107.94 49.344 107.94 112.052v46.26c0 59.624-49.344 108.968-112.052 108.968z" />
<glyph unicode="&#x70;" glyph-name="phone" horiz-adv-x="529" d="M113.952 669.297h292.983c22.616 0 43.176-20.56 46.26-43.176v-520.172c0-22.616-19.532-43.176-43.176-43.176h-292.983c-20.56 0-43.176 19.532-43.176 43.176v520.172c0 22.616 17.476 43.176 40.092 43.176zM294.882 98.752c10.28 0 13.364 9.252 13.364 19.532v17.476c3.084 10.28-3.084 16.448-13.364 19.532h-62.708c-10.28 0-13.364-9.252-13.364-19.532v-17.476c-3.084-10.28 3.084-16.448 13.364-19.532h62.708zM136.568 210.805h250.834v395.784h-250.834v-395.784z" />
<glyph unicode="&#x71;" glyph-name="quote" horiz-adv-x="561" d="M0.804 728.448c0 0-0.2-143.259 0.2-208.815 0.2-36.644-0.5-73.387 11.444-109.024 20.58-61.44 64.752-99.588 122.076-124.888 32.528-14.356 66.86-21.484 102.3-23.892 2.008-0.1 4.016 0.3 6.728 0.5 0 38.45 0 76.398 0 114.648-14.756 3.012-30.116 4.516-44.272 9.536-16.264 5.724-32.327 13.052-46.784 22.388-24.596 15.76-37.548 46.682-34.232 76.499l126.292 0.2v242.847h-243.751zM315.43 728.448c0 0-0.2-143.259 0.2-208.815 0.2-36.644-0.5-73.387 11.444-109.024 20.58-61.44 64.752-99.588 122.076-124.888 32.528-14.356 66.86-21.484 102.3-23.892 2.008-0.1 4.016 0.3 6.728 0.5 0 38.45 0 76.398 0 114.648-14.756 3.012-30.116 4.516-44.272 9.536-16.264 5.724-32.327 13.052-46.784 22.388-24.596 15.76-37.548 46.682-34.232 76.499h126.292v243.048h-243.751z" />
<glyph unicode="&#x72;" glyph-name="rss" horiz-adv-x="778" d="M189.596 237.533c39.064 0 71.96-32.896 71.96-71.96s-32.896-72.988-71.96-72.988-72.988 33.924-72.988 72.988 33.924 71.96 72.988 71.96zM297.537 273.513c-48.316 48.316-109.996 75.044-177.846 76.072v105.884c197.378-3.084 359.803-165.509 359.803-362.887h-105.884c0 68.876-26.728 131.585-76.072 180.93zM116.608 533.6v105.884c300.179-3.084 543.818-246.722 543.818-546.902h-105.884c0 243.638-194.294 441.016-437.932 441.016z" />
<glyph unicode="&#x73;" glyph-name="radio-button-active" horiz-adv-x="960" d="M484.898-1.503h-10.24c-55.567 0-109.617 10.811-160.539 32.143-49.12 20.577-93.307 50.068-131.426 87.617-38.025 37.552-68.083 81.358-89.419 130.194-21.903 50.447-33.475 104.116-34.231 159.59v0.949c0.759 55.567 12.328 109.429 34.326 160.064 21.242 48.93 51.3 92.737 89.325 130.382s82.308 67.134 131.426 87.712c50.826 21.336 104.876 32.143 160.442 32.143h5.405v-0.094h4.932c55.567 0 109.617-10.811 160.539-32.143 49.12-20.577 93.307-50.068 131.426-87.617 38.025-37.552 68.083-81.358 89.325-130.194 21.997-50.541 33.57-104.214 34.326-159.684v-0.949c-0.759-55.567-12.328-109.429-34.326-159.97-21.242-48.93-51.3-92.737-89.325-130.288-38.119-37.646-82.308-67.134-131.426-87.712-50.921-21.336-104.876-32.143-160.539-32.143zM123.712 408.516c1.42-92.454 38.501-179.218 104.403-244.172 66.093-65.24 153.618-101.085 246.449-101.085h10.24c92.832 0 180.356 35.937 246.449 101.18 65.901 65.144 102.98 152.003 104.497 244.742-1.42 92.454-38.596 179.218-104.403 244.172-66.093 65.24-153.618 101.085-246.449 101.085h-5.12v0.094h-5.214c-92.832 0-180.356-35.937-246.355-101.18-65.996-65.144-103.075-152.098-104.497-244.836zM478.544 536.056c67.895-2.085 122.133-57.558 122.133-125.738 0-69.507-56.326-125.738-125.738-125.738s-125.738 56.326-125.738 125.738v0c1.044 69.695 57.746 125.738 127.539 125.738 0.665 0 1.326 0 2.085 0h-0.282z" />
<glyph unicode="&#x74;" glyph-name="twitter" horiz-adv-x="827" d="M741.58 587.442c-16.448-26.728-39.064-49.344-68.876-65.792v-16.448c0-72.988-20.56-140.837-59.624-200.462-68.876-106.912-184.014-164.481-302.235-164.481-67.848 0-136.725 18.504-198.406 58.596 11.308-2.056 23.644-2.056 34.952-2.056 56.54 0 112.052 18.504 156.257 54.484-52.428 0-101.772 37.008-118.22 89.436 8.224-1.028 15.42-2.056 23.644-2.056 11.308 0 23.644 1.028 34.952 5.14-59.624 13.364-101.772 65.792-101.772 128.5 19.532-10.28 40.092-16.448 59.624-16.448-37.008 25.7-56.54 65.792-56.54 106.912 0 21.588 5.14 44.204 16.448 64.764 65.792-82.24 161.397-129.528 263.171-135.697-2.056 9.252-3.084 19.532-3.084 28.784 0 34.952 14.392 69.904 40.092 93.548 25.7 22.616 56.54 33.924 88.408 33.924 33.924 0 66.82-14.392 92.52-41.12 29.812 3.084 55.512 13.364 82.24 29.812-10.28-29.812-28.784-52.428-55.512-68.876 22.616 3.084 49.344 9.252 71.96 19.532z" />
<glyph unicode="&#x75;" glyph-name="futurity" horiz-adv-x="773" d="M292.971 519.722c-9.252 3.084-16.448-3.084-16.448-9.252l-137.753-202.518c-3.084-3.084-10.28-6.168-16.448-6.168h-83.268c0 3.084 3.084 3.084 3.084 6.168l257.002 382.419c3.084 3.084 6.168 6.168 9.252 6.168h209.714c0-6.168-4.112-6.168-4.112-9.252l-105.884-160.369c-3.084-3.084-9.252-7.196-15.42-7.196h-99.716zM518.104 262.719c-3.084-6.168-10.28-6.168-13.364-6.168h-102.8c-6.168 0-12.336-3.084-15.42-9.252-16.448-25.7-31.868-48.316-48.316-74.016-3.084-3.084-7.196-6.168-10.28-6.168h-89.436l6.168 9.252c54.484 80.184 108.968 164.481 163.453 244.666 3.084 6.168 10.28 9.252 16.448 9.252h205.602l-6.168-9.252c-34.952-51.4-70.932-106.912-105.884-158.313zM530.441 164.030c0 0 196.488 0 196.488 2.948 0 0.045-0.045 0.090-0.137 0.136h6.168l-31.868-48.316c-16.448-25.7-34.952-51.4-51.4-77.1 0-3.084-7.196-6.168-10.28-6.168h-205.602c27.756 40.092 56.54 80.184 84.296 121.304 3.084 3.084 6.168 7.196 12.336 7.196z" />
<glyph unicode="&#x76;" glyph-name="video" horiz-adv-x="500" d="M106.287 625.607c12.336 0 28.784-5.14 46.26-16.448 101.772-62.708 207.658-128.5 309.431-194.294 24.672-16.448 37.008-32.896 37.008-48.316s-12.336-30.84-37.008-47.288c-101.772-65.792-206.63-131.585-312.515-197.378-16.448-9.252-30.84-15.42-42.148-15.42-23.644 0-37.008 19.532-37.008 57.568v204.574c-3.084 65.792-3.084 128.5-3.084 194.294 0 41.12 14.392 62.708 39.064 62.708z" />
<glyph unicode="&#x79;" glyph-name="youtube" horiz-adv-x="721" d="M614.108 345.731v-6.168c0-35.98-4.112-72.988-7.196-112.052-3.084-32.896-29.812-56.54-62.708-59.624-19.532-3.084-111.024-6.168-184.014-6.168s-164.481 3.084-184.014 6.168c-32.896 3.084-56.54 26.728-59.624 59.624-3.084 35.98-7.196 72.988-7.196 112.052v6.168c0 35.98 4.112 72.988 7.196 112.052 3.084 32.896 29.812 56.54 62.708 59.624 19.532 3.084 111.024 7.196 184.014 7.196s165.509-4.112 185.042-7.196c32.896-3.084 56.54-26.728 62.708-59.624 0-39.064 3.084-76.072 3.084-112.052zM472.242 345.731l-188.126 99.716v-201.49z" />
</font>
</defs>
</svg>
