<?xml version="1.0" standalone="no"?>
<!DOCTYPE svg PUBLIC "-//W3C//DTD SVG 1.1//EN" "http://www.w3.org/Graphics/SVG/1.1/DTD/svg11.dtd" >
<svg xmlns="http://www.w3.org/2000/svg">
<metadata>Generated by IcoMoon</metadata>
<defs>
<font id="KU" horiz-adv-x="1024">
<font-face units-per-em="1024" ascent="860.8406647116325" descent="-163.15933528836754" />
<missing-glyph horiz-adv-x="1024" />
<glyph unicode="&#x20;" horiz-adv-x="0" d="" />
<glyph unicode="&#x61;" glyph-name="arrow" horiz-adv-x="627" d="M128.195 32.11c0 0 202.114 329.142 202.114 329.142s-202.114 329.142-202.114 329.142c0 0 167.472 0 167.472 0s202.114-329.142 202.114-329.142c0 0-202.114-329.142-202.114-329.142s-167.472 0-167.472 0c0 0 0 0 0 0" />
<glyph unicode="&#x62;" glyph-name="vimeo" horiz-adv-x="789" d="M425.951 479.086c14.378 84.214 92.43 133.51 157.131 133.51 48.269 0 88.322-26.702 88.322-88.322 0-8.216 0-18.486-2.054-28.756-32.864-180.753-208.482-332.75-263.941-365.614-13.351-9.243-26.702-12.324-39.026-12.324-37.999 0-69.836 34.918-82.16 62.647-22.594 39.026-82.16 265.995-98.592 285.508-2.054 3.081-7.189 5.135-11.297 5.135-19.513 0-51.35-24.648-51.35-24.648l-26.702 29.783s92.43 115.024 171.509 131.456c4.108 1.027 8.216 2.054 12.324 2.054 66.755 0 67.782-127.348 86.268-196.158 16.432-72.917 29.783-115.024 46.215-115.024s46.215 39.026 79.079 101.673c10.27 17.459 14.378 33.891 14.378 48.269 0 25.675-15.405 44.161-40.053 44.161-11.297 0-24.648-4.108-40.053-13.351z" />
<glyph unicode="&#x63;" glyph-name="coursera" horiz-adv-x="776" d="M759.924 363.034c0-101.673-80.106-182.807-183.834-182.807-55.458 0-107.835 22.594-146.861 61.62-13.351 10.27-23.621 19.513-33.891 32.864l53.404 72.917c19.513-19.513 30.81-42.107 52.377-59.566 19.513-17.459 44.161-26.702 70.863-26.702 53.404 0 93.457 39.026 97.565 86.268 0 26.702-7.189 52.377-23.621 71.89s-42.107 32.864-68.809 32.864c-32.864 0-63.674-13.351-86.268-35.945-16.432-19.513-32.864-40.053-49.296-62.647-19.513-26.702-39.026-55.458-58.539-82.16-40.053-47.242-98.592-98.592-174.59-98.592-106.808 0-193.077 73.944-193.077 186.915 0 107.835 84.214 185.888 188.969 185.888 51.35 0 101.673-18.486 138.645-53.404l13.351-13.351v-3.081l-52.377-75.998-13.351 13.351c-16.432 16.432-33.891 29.783-56.485 35.945-10.27 5.135-21.567 7.189-32.864 7.189-57.512 0-96.538-46.215-96.538-101.673 0-49.296 45.188-90.376 93.457-90.376 71.89 0 107.835 58.539 138.645 102.7 19.513 29.783 35.945 55.458 55.458 82.16 33.891 53.404 96.538 102.7 174.59 102.7h11.297c102.7 0 181.78-87.295 181.78-188.969z" />
<glyph unicode="&#x64;" glyph-name="padlock" horiz-adv-x="770" d="M703.503 402.068h-637.519v-464.958h637.519v464.958zM424.686 150.412v-134.216h-80.688v134.216c-40.742 22.368-55.92 73.495-33.552 113.447s73.495 55.92 113.447 33.552 55.92-73.495 33.552-113.447c-7.19-14.379-18.374-26.363-32.753-33.552zM243.338 444.407c0 7.19-1.599 82.284 0.8 111.049 6.39 66.305 69.5 120.637 141.406 122.233 66.305 0.8 124.63-48.73 139.009-118.238 5.591-27.16 2.396-107.055 2.396-115.043h110.251c0 6.39 2.396 116.642-10.385 163.774-29.558 103.859-128.624 177.354-241.261 179.75-105.458 1.599-202.117-67.102-239.664-171.762-17.574-47.931-13.58-165.37-13.58-171.762h111.049z" />
<glyph unicode="&#x65;" glyph-name="exclamation" d="M466.891 617.087c32.271 0 60.953 0 93.226 0 0-116.525 0-233.047 0-351.365-30.478 0-60.953 0-93.226 0 0 116.525 0 233.047 0 351.365zM466.891 226.272c32.271 0 62.748 0 93.226 0 0-32.271 0-62.748 0-95.014-32.271 0-62.748 0-93.226 0 0 32.271 0 62.748 0 95.014zM898.935 364.315c0-213.326-173.888-387.222-385.432-387.222-213.326 0-385.432 172.094-385.432 385.432s170.299 383.638 385.432 385.432c209.749 1.795 385.432-172.094 385.432-383.638zM812.883 362.52c0 166.725-132.659 299.38-299.38 299.38-164.931 0-299.38-132.659-299.38-297.591 0-166.725 130.866-299.38 297.591-301.168s301.168 132.659 301.168 299.38z" />
<glyph unicode="&#x66;" glyph-name="facebook2" horiz-adv-x="947" d="M531.476-149.955h-134.537v332.75h-111.943v128.375h115.024v95.511c0 111.943 69.836 171.509 168.428 171.509 9.243 1.027 19.513 1.027 28.756 1.027 23.621 0 46.215-3.081 69.836-5.135v-118.105h-69.836c-55.458 0-65.728-26.702-65.728-62.647v-82.16h128.375l-16.432-128.375h-111.943v-332.75z" />
<glyph unicode="&#x67;" glyph-name="stetoskop" horiz-adv-x="940" d="M200.443 863.476h0.003c12.282-0.030 22.232-9.983 22.256-22.269v-48.735c-0.036-12.27-9.975-22.209-22.248-22.245-42.924 0-74.094 4.97-93.396 14.532l-0.369-0.070c-24.553-5.529-42.913-27.414-43.037-53.621 0-185.964 60.328-303.516 137.504-353.674 4.718-3.041 9.52-5.829 14.374-8.388 35.396 38.426 111.912 38.436 147.318 0 4.854 2.506 9.667 5.316 14.385 8.388 77.208 50.158 137.536 167.71 137.536 353.674v0.003c-0.029 27.167-19.757 49.721-45.995 54.191-19.187-9.887-50.682-15.035-94.36-15.035h-0.001c-12.29 0.012-22.253 9.96-22.289 22.248v48.734c0.024 12.283 9.974 22.237 22.259 22.267 39.705 0 70.928-5.074 91.079-14.511 62.257-2.946 112.436-54.991 112.436-117.898 0-209.889-72.983-345.758-166.389-406.442l0.906 0.56c-9.628-6.34-19.739-12.007-31.74-17.555-3.774-30.594-22.311-68.988-63.201-115.193v-78.988c0.041-55.667 22.694-106.042 59.279-142.445 79.032-79.022 244.834-94.371 323.866-15.339l0.008 0.008c36.575 36.396 59.228 86.771 59.271 142.445v282.033l-0.998 0.202c-64.296 15.435-112.080 73.305-112.080 142.335 0 80.84 65.534 146.374 146.374 146.374s146.374-65.534 146.374-146.374c0-70.278-49.528-128.988-116.543-143.302v-281.265c-0.039-73.095-29.761-139.248-77.774-187.067-103.671-103.692-309.398-88.353-413.089 15.339l-0.009 0.009c-48.010 47.806-77.734 113.962-77.765 187.066v86.529c-36.339 42.861-53.094 78.728-56.669 107.644l-1.477 0.622c-10.514 4.927-20.614 10.59-29.326 16.363-93.406 60.684-166.389 196.553-166.389 406.442 0 61.68 47.82 112.624 108.273 117.626 20.13 9.614 51.563 14.783 91.645 14.783zM793.226 606.008c-0.003 0-0.007 0-0.010 0-45.988 0-83.268-37.28-83.268-83.268s37.28-83.268 83.268-83.268c45.988 0 83.268 37.28 83.268 83.268 0 0.004 0 0.007 0 0.011v-0.001c0 0.003 0 0.007 0 0.010 0 45.976-37.271 83.247-83.247 83.247-0.004 0-0.007 0-0.011 0h0.001z" />
<glyph unicode="&#x69;" glyph-name="instagram" horiz-adv-x="761" d="M601.853 637.611c30.009-3.334 50.017-30.009 53.351-63.355v-433.476c-6.669-30.009-33.345-53.35-63.355-53.35h-430.142c-26.675 6.669-46.682 23.341-53.351 50.017-3.333 3.333-3.333 6.669-3.333 10.004v433.476c3.333 23.341 23.341 46.682 46.682 53.35 3.334 3.334 10.004 3.334 13.338 3.334h436.811zM378.446 470.889c-56.685 0-103.368-46.682-106.702-106.702 0-60.021 50.017-106.702 106.702-106.702 60.020 0 106.702 46.682 106.702 106.702s-50.018 106.702-106.702 106.702zM381.78 194.131c-91.914 0-171.672 76.532-171.672 167.942 0 14.014 1.668 28.171 4.951 42.128h-46.683v-230.076c3.334-10.004 13.338-20.007 23.342-20.007h383.46c10.004 0 16.671 10.004 16.671 20.007v233.41h-46.682c3.811-15.243 5.717-30.486 5.717-45.416 0-37.329-11.91-72.717-35.726-101.298-30.009-43.347-80.027-66.689-133.377-66.689zM591.849 490.896v60.020c0 10.004-10.004 20.007-20.007 20.007h-63.355c-10.004 0-20.007-10.004-20.007-20.007v-63.354c0-10.004 10.004-20.007 20.007-20.007h63.355c10.004 3.333 20.007 13.337 20.007 23.341z" />
<glyph unicode="&#x6b;" glyph-name="ku-logo" horiz-adv-x="560" d="M556.328 540.742c0-113.633-92.17-205.702-205.602-205.702-113.733 0-205.803 92.070-205.803 205.702s92.070 205.903 205.803 205.903c113.433 0 205.602-92.27 205.602-205.903zM197.478 240.363c0-53.858-43.729-97.585-97.585-97.585s-97.585 43.729-97.585 97.585c0 53.959 43.729 97.585 97.585 97.585 53.959 0 97.585-43.729 97.585-97.585zM401.776 31.352c0-28.081-22.966-50.95-50.95-50.95-28.081 0-51.050 22.766-51.050 50.95s22.866 50.95 51.050 50.95c27.881 0 50.95-22.866 50.95-50.95z" />
<glyph unicode="&#x6c;" glyph-name="linkedin2" horiz-adv-x="611" d="M27.668 71.929v387.067h119.724v-387.067h-119.724zM86.949 653.111c37.195 0 70.904-30.221 70.904-70.904s-30.221-70.904-70.904-70.904-70.904 30.221-70.904 70.904 33.709 70.904 70.904 70.904zM221.782 71.929l-4.651 387.067h116.237v-52.306c20.921 38.357 60.443 63.929 105.775 63.929h9.299c123.21 0 145.297-81.365 145.297-185.978v-212.713h-118.562v185.978c0 48.821-4.651 104.613-63.929 104.613s-70.904-48.821-70.904-101.127v-189.466h-118.562z" />
<glyph unicode="&#x6d;" glyph-name="radio-button" horiz-adv-x="959" d="M484.424-4.658h-10.23c-55.513 0-109.51 10.8-160.382 32.112-49.072 20.557-93.216 50.019-131.298 87.531-37.988 37.515-68.017 81.279-89.332 130.067-21.882 50.398-33.442 104.014-34.198 159.434v0.948c0.758 55.513 12.316 109.322 34.292 159.908 21.221 48.882 51.25 92.646 89.238 130.255s82.228 67.068 131.298 87.626c50.776 21.315 104.774 32.112 160.285 32.112h5.4v-0.094h4.927c55.513 0 109.51-10.8 160.382-32.112 49.072-20.557 93.216-50.019 131.298-87.531 37.988-37.515 68.017-81.279 89.238-130.067 21.976-50.492 33.537-104.112 34.292-159.528v-0.948c-0.758-55.513-12.316-109.322-34.292-159.814-21.221-48.882-51.25-92.646-89.238-130.161-38.082-37.609-82.228-67.068-131.298-87.626-50.871-21.315-104.774-32.112-160.382-32.112zM123.591 404.961c1.419-92.364 38.463-179.043 104.301-243.934 66.028-65.176 153.468-100.986 246.208-100.986h10.23c92.741 0 180.18 35.902 246.208 101.081 65.837 65.080 102.879 151.855 104.395 244.503-1.419 92.364-38.558 179.043-104.301 243.934-66.028 65.176-153.468 100.986-246.208 100.986h-5.115v0.094h-5.209c-92.741 0-180.18-35.902-246.114-101.081-65.932-65.080-102.974-151.949-104.395-244.597z" />
<glyph unicode="&#x6f;" glyph-name="conversation" horiz-adv-x="670" d="M648.743 372.277v-10.27c0-111.943-92.43-203.347-204.374-203.347h-144.807c-43.134 0-85.241 12.324-121.186 39.026l-158.158-49.296 108.862 101.673c-22.594 32.864-32.864 72.917-32.864 111.943v10.27c0 111.943 91.403 204.374 203.347 204.374h150.969c111.943 0 198.212-91.403 198.212-204.374zM444.369 500.653h-147.888c-59.566 0-108.862-49.296-108.862-108.862v-46.215c0-62.647 49.296-111.943 111.943-111.943h148.915c62.647 0 107.835 49.296 107.835 111.943v46.215c0 59.566-49.296 108.862-111.943 108.862z" />
<glyph unicode="&#x70;" glyph-name="phone" horiz-adv-x="528" d="M113.841 665.487h292.697c22.594 0 43.134-20.54 46.215-43.134v-519.664c0-22.594-19.513-43.134-43.134-43.134h-292.697c-20.54 0-43.134 19.513-43.134 43.134v519.664c0 22.594 17.459 43.134 40.053 43.134zM294.594 95.499c10.27 0 13.351 9.243 13.351 19.513v17.459c3.081 10.27-3.081 16.432-13.351 19.513h-62.647c-10.27 0-13.351-9.243-13.351-19.513v-17.459c-3.081-10.27 3.081-16.432 13.351-19.513h62.647zM136.435 207.443h250.589v395.397h-250.589v-395.397z" />
<glyph unicode="&#x71;" glyph-name="quote" horiz-adv-x="560" d="M0.803 724.58c0 0-0.2-143.119 0.2-208.611 0.2-36.608-0.5-73.315 11.433-108.918 20.56-61.38 64.689-99.491 121.957-124.766 32.496-14.342 66.795-21.463 102.2-23.869 2.006-0.1 4.012 0.3 6.721 0.5 0 38.412 0 76.323 0 114.536-14.742 3.009-30.087 4.512-44.229 9.527-16.248 5.718-32.295 13.039-46.738 22.366-24.572 15.745-37.511 46.636-34.199 76.424l126.169 0.2v242.61h-243.513zM315.122 724.58c0 0-0.2-143.119 0.2-208.611 0.2-36.608-0.5-73.315 11.433-108.918 20.56-61.38 64.689-99.491 121.957-124.766 32.496-14.342 66.795-21.463 102.2-23.869 2.006-0.1 4.012 0.3 6.721 0.5 0 38.412 0 76.323 0 114.536-14.742 3.009-30.087 4.512-44.229 9.527-16.248 5.718-32.295 13.039-46.738 22.366-24.572 15.745-37.511 46.636-34.199 76.424h126.169v242.811h-243.513z" />
<glyph unicode="&#x72;" glyph-name="rss" horiz-adv-x="777" d="M189.411 234.145c39.026 0 71.89-32.864 71.89-71.89s-32.864-72.917-71.89-72.917-72.917 33.891-72.917 72.917 33.891 71.89 72.917 71.89zM297.246 270.090c-48.269 48.269-109.889 74.971-177.672 75.998v105.781c197.185-3.081 359.452-165.347 359.452-362.533h-105.781c0 68.809-26.702 131.456-75.998 180.753zM116.494 529.923v105.781c299.886-3.081 543.287-246.481 543.287-546.368h-105.781c0 243.4-194.104 440.585-437.504 440.585z" />
<glyph unicode="&#x73;" glyph-name="radio-button-active" horiz-adv-x="959" d="M484.424-4.658h-10.23c-55.513 0-109.51 10.8-160.382 32.112-49.072 20.557-93.216 50.019-131.298 87.531-37.988 37.515-68.017 81.279-89.332 130.067-21.882 50.398-33.442 104.014-34.198 159.434v0.948c0.758 55.513 12.316 109.322 34.292 159.908 21.221 48.882 51.25 92.646 89.238 130.255s82.228 67.068 131.298 87.626c50.776 21.315 104.774 32.112 160.285 32.112h5.4v-0.094h4.927c55.513 0 109.51-10.8 160.382-32.112 49.072-20.557 93.216-50.019 131.298-87.531 37.988-37.515 68.017-81.279 89.238-130.067 21.976-50.492 33.537-104.112 34.292-159.528v-0.948c-0.758-55.513-12.316-109.322-34.292-159.814-21.221-48.882-51.25-92.646-89.238-130.161-38.082-37.609-82.228-67.068-131.298-87.626-50.871-21.315-104.774-32.112-160.382-32.112zM123.591 404.961c1.419-92.364 38.463-179.043 104.301-243.934 66.028-65.176 153.468-100.986 246.208-100.986h10.23c92.741 0 180.18 35.902 246.208 101.081 65.837 65.080 102.879 151.855 104.395 244.503-1.419 92.364-38.558 179.043-104.301 243.934-66.028 65.176-153.468 100.986-246.208 100.986h-5.115v0.094h-5.209c-92.741 0-180.18-35.902-246.114-101.081-65.932-65.080-102.974-151.949-104.395-244.597zM478.077 532.376c67.829-2.083 122.014-57.502 122.014-125.615 0-69.439-56.271-125.615-125.615-125.615s-125.615 56.271-125.615 125.615v0c1.043 69.627 57.69 125.615 127.414 125.615 0.664 0 1.325 0 2.083 0h-0.282z" />
<glyph unicode="&#x74;" glyph-name="twitter" horiz-adv-x="826" d="M740.856 583.712c-16.432-26.702-39.026-49.296-68.809-65.728v-16.432c0-72.917-20.54-140.699-59.566-200.266-68.809-106.808-183.834-164.32-301.94-164.32-67.782 0-136.591 18.486-198.212 58.539 11.297-2.054 23.621-2.054 34.918-2.054 56.485 0 111.943 18.486 156.104 54.431-52.377 0-101.673 36.972-118.105 89.349 8.216-1.027 15.405-2.054 23.621-2.054 11.297 0 23.621 1.027 34.918 5.135-59.566 13.351-101.673 65.728-101.673 128.375 19.513-10.27 40.053-16.432 59.566-16.432-36.972 25.675-56.485 65.728-56.485 106.808 0 21.567 5.135 44.161 16.432 64.701 65.728-82.16 161.239-129.402 262.914-135.564-2.054 9.243-3.081 19.513-3.081 28.756 0 34.918 14.378 69.836 40.053 93.457 25.675 22.594 56.485 33.891 88.322 33.891 33.891 0 66.755-14.378 92.43-41.080 29.783 3.081 55.458 13.351 82.16 29.783-10.27-29.783-28.756-52.377-55.458-68.809 22.594 3.081 49.296 9.243 71.89 19.513z" />
<glyph unicode="&#x75;" glyph-name="futurity" horiz-adv-x="772" d="M292.685 516.058c-9.243 3.081-16.432-3.081-16.432-9.243l-137.618-202.32c-3.081-3.081-10.27-6.162-16.432-6.162h-83.187c0 3.081 3.081 3.081 3.081 6.162l256.751 382.046c3.081 3.081 6.162 6.162 9.243 6.162h209.509c0-6.162-4.108-6.162-4.108-9.243l-105.781-160.212c-3.081-3.081-9.243-7.189-15.405-7.189h-99.619zM517.598 259.306c-3.081-6.162-10.27-6.162-13.351-6.162h-102.7c-6.162 0-12.324-3.081-15.405-9.243-16.432-25.675-31.837-48.269-48.269-73.944-3.081-3.081-7.189-6.162-10.27-6.162h-89.349l6.162 9.243c54.431 80.106 108.862 164.32 163.293 244.427 3.081 6.162 10.27 9.243 16.432 9.243h205.401l-6.162-9.243c-34.918-51.35-70.863-106.808-105.781-158.158zM529.923 160.714c0 0 196.296 0 196.296 2.945 0 0.045-0.045 0.090-0.137 0.136h6.162l-31.837-48.269c-16.432-25.675-34.918-51.35-51.35-77.025 0-3.081-7.189-6.162-10.27-6.162h-205.401c27.729 40.053 56.485 80.106 84.214 121.186 3.081 3.081 6.162 7.189 12.324 7.189z" />
<glyph unicode="&#x76;" glyph-name="video" horiz-adv-x="500" d="M106.183 621.84c12.324 0 28.756-5.135 46.215-16.432 101.673-62.647 207.455-128.375 309.129-194.104 24.648-16.432 36.972-32.864 36.972-48.269s-12.324-30.81-36.972-47.242c-101.673-65.728-206.428-131.456-312.21-197.185-16.432-9.243-30.81-15.405-42.107-15.405-23.621 0-36.972 19.513-36.972 57.512v204.374c-3.081 65.728-3.081 128.375-3.081 194.104 0 41.080 14.378 62.647 39.026 62.647z" />
<glyph unicode="&#x79;" glyph-name="youtube" horiz-adv-x="720" d="M613.508 342.237v-6.162c0-35.945-4.108-72.917-7.189-111.943-3.081-32.864-29.783-56.485-62.647-59.566-19.513-3.081-110.916-6.162-183.834-6.162s-164.32 3.081-183.834 6.162c-32.864 3.081-56.485 26.702-59.566 59.566-3.081 35.945-7.189 72.917-7.189 111.943v6.162c0 35.945 4.108 72.917 7.189 111.943 3.081 32.864 29.783 56.485 62.647 59.566 19.513 3.081 110.916 7.189 183.834 7.189s165.347-4.108 184.861-7.189c32.864-3.081 56.485-26.702 62.647-59.566 0-39.026 3.081-75.998 3.081-111.943zM471.781 342.237l-187.942 99.619v-201.293z" />
</font>
</defs>
</svg>
