<?xml version="1.0" standalone="no"?>
<!DOCTYPE svg PUBLIC "-//W3C//DTD SVG 1.1//EN" "http://www.w3.org/Graphics/SVG/1.1/DTD/svg11.dtd" >
<svg xmlns="http://www.w3.org/2000/svg">
<metadata>Generated by IcoMoon</metadata>
<defs>
<font id="KU" horiz-adv-x="1024">
<font-face units-per-em="1024" ascent="860.8406647116325" descent="-163.15933528836754" />
<missing-glyph horiz-adv-x="1024" />
<glyph unicode="&#x20;" horiz-adv-x="0" d="" />
<glyph unicode="&#x61;" glyph-name="arrow" horiz-adv-x="629" d="M128.445 38.495c0 0 202.51 329.786 202.51 329.786s-202.51 329.786-202.51 329.786c0 0 167.8 0 167.8 0s202.51-329.786 202.51-329.786c0 0-202.51-329.786-202.51-329.786s-167.8 0-167.8 0c0 0 0 0 0 0" />
<glyph unicode="&#x62;" glyph-name="vimeo" horiz-adv-x="791" d="M426.784 486.345c14.406 84.378 92.61 133.772 157.439 133.772 48.363 0 88.494-26.754 88.494-88.494 0-8.232 0-18.522-2.058-28.812-32.928-181.107-208.89-333.401-264.457-366.329-13.377-9.261-26.754-12.348-39.102-12.348-38.073 0-69.972 34.986-82.32 62.769-22.638 39.102-82.32 266.515-98.784 286.066-2.058 3.087-7.203 5.145-11.319 5.145-19.551 0-51.45-24.696-51.45-24.696l-26.754 29.841s92.61 115.249 171.845 131.714c4.116 1.029 8.232 2.058 12.348 2.058 66.885 0 67.914-127.597 86.436-196.542 16.464-73.059 29.841-115.249 46.305-115.249s46.305 39.102 79.233 101.871c10.29 17.493 14.406 33.957 14.406 48.363 0 25.725-15.435 44.247-40.131 44.247-11.319 0-24.696-4.116-40.131-13.377z" />
<glyph unicode="&#x63;" glyph-name="coursera" horiz-adv-x="778" d="M761.411 370.066c0-101.871-80.262-183.165-184.194-183.165-55.566 0-108.046 22.638-147.149 61.74-13.377 10.29-23.667 19.551-33.957 32.928l53.508 73.059c19.551-19.551 30.87-42.189 52.479-59.682 19.551-17.493 44.247-26.754 71.001-26.754 53.508 0 93.639 39.102 97.755 86.436 0 26.754-7.203 52.479-23.667 72.030s-42.189 32.928-68.943 32.928c-32.928 0-63.798-13.377-86.436-36.015-16.464-19.551-32.928-40.131-49.392-62.769-19.551-26.754-39.102-55.566-58.653-82.32-40.131-47.334-98.784-98.784-174.932-98.784-107.017 0-193.455 74.088-193.455 187.281 0 108.046 84.378 186.252 189.339 186.252 51.45 0 101.871-18.522 138.917-53.508l13.377-13.377v-3.087l-52.479-76.146-13.377 13.377c-16.464 16.464-33.957 29.841-56.595 36.015-10.29 5.145-21.609 7.203-32.928 7.203-57.624 0-96.726-46.305-96.726-101.871 0-49.392 45.276-90.552 93.639-90.552 72.030 0 108.046 58.653 138.917 102.9 19.551 29.841 36.015 55.566 55.566 82.32 33.957 53.508 96.726 102.9 174.932 102.9h11.319c102.9 0 182.136-87.465 182.136-189.339z" />
<glyph unicode="&#x64;" glyph-name="padlock" horiz-adv-x="772" d="M704.879 409.176h-638.766v-465.868h638.766v465.868zM425.517 157.028v-134.478h-80.846v134.478c-40.822 22.412-56.030 73.639-33.618 113.669s73.639 56.030 113.669 33.618 56.030-73.639 33.618-113.669c-7.204-14.407-18.41-26.415-32.817-33.618zM243.814 451.598c0 7.204-1.603 82.445 0.802 111.267 6.402 66.435 69.636 120.873 141.682 122.472 66.435 0.802 124.874-48.826 139.281-118.47 5.601-27.214 2.4-107.265 2.4-115.268h110.467c0 6.402 2.4 116.87-10.405 164.094-29.616 104.063-128.876 177.701-241.733 180.102-105.664 1.603-202.513-67.234-240.133-172.098-17.608-48.025-13.606-165.694-13.606-172.098h111.267z" />
<glyph unicode="&#x65;" glyph-name="exclamation" d="M467.804 624.616c32.335 0 61.073 0 93.408 0 0-116.753 0-233.503 0-352.052-30.538 0-61.073 0-93.408 0 0 116.753 0 233.503 0 352.052zM467.804 233.037c32.335 0 62.87 0 93.408 0 0-32.335 0-62.87 0-95.2-32.335 0-62.87 0-93.408 0 0 32.335 0 62.87 0 95.2zM900.694 371.349c0-213.744-174.228-387.98-386.186-387.98-213.744 0-386.186 172.43-386.186 386.186s170.632 384.388 386.186 386.186c210.159 1.799 386.186-172.43 386.186-384.388zM814.473 369.551c0 167.051-132.919 299.966-299.966 299.966-165.253 0-299.966-132.919-299.966-298.173 0-167.051 131.122-299.966 298.173-301.757s301.757 132.919 301.757 299.966z" />
<glyph unicode="&#x66;" glyph-name="facebook2" horiz-adv-x="949" d="M532.516-143.926h-134.801v333.401h-112.162v128.626h115.249v95.697c0 112.162 69.972 171.845 168.758 171.845 9.261 1.029 19.551 1.029 28.812 1.029 23.667 0 46.305-3.087 69.972-5.145v-118.336h-69.972c-55.566 0-65.856-26.754-65.856-62.769v-82.32h128.626l-16.464-128.626h-112.162v-333.401z" />
<glyph unicode="&#x67;" glyph-name="stetoskop" horiz-adv-x="942" d="M200.835 871.486h0.003c12.306-0.030 22.276-10.003 22.3-22.313v-48.831c-0.036-12.294-9.995-22.253-22.292-22.289-43.008 0-74.238 4.98-93.578 14.56l-0.369-0.070c-24.601-5.539-42.997-27.468-43.121-53.725 0-186.328 60.446-304.11 137.773-354.366 4.728-3.047 9.538-5.841 14.402-8.404 35.466 38.502 112.131 38.512 147.606 0 4.864 2.51 9.685 5.326 14.413 8.404 77.359 50.256 137.805 168.038 137.805 354.366v0.003c-0.029 27.221-19.795 49.819-46.085 54.297-19.225-9.907-50.782-15.065-94.544-15.065h-0.001c-12.314 0.012-22.297 9.98-22.333 22.292v48.83c0.024 12.307 9.994 22.281 22.303 22.311 39.783 0 71.066-5.084 91.257-14.539 62.379-2.952 112.656-55.099 112.656-118.128 0-210.299-73.125-346.434-166.715-407.237l0.908 0.562c-9.646-6.352-19.777-12.031-31.802-17.589-3.782-30.654-22.355-69.123-63.325-115.419v-79.142c0.041-55.775 22.738-106.25 59.395-142.723 79.186-79.176 245.313-94.555 324.5-15.369l0.008 0.008c36.647 36.468 59.344 86.941 59.387 142.723v282.585l-1 0.202c-64.422 15.465-112.3 73.449-112.3 142.613 0 80.998 65.662 146.66 146.66 146.66s146.66-65.662 146.66-146.66c0-70.416-49.624-129.24-116.771-143.582v-281.815c-0.039-73.238-29.819-139.52-77.926-187.433-103.873-103.894-310.003-88.525-413.897 15.369l-0.009 0.009c-48.104 47.9-77.886 114.185-77.917 187.432v86.699c-36.411 42.945-53.198 78.882-56.779 107.854l-1.479 0.624c-10.534 4.937-20.654 10.61-29.384 16.395-93.588 60.802-166.715 196.937-166.715 407.237 0 61.8 47.914 112.844 108.485 117.856 20.17 9.632 51.663 14.811 91.825 14.811zM794.777 613.515c-0.003 0-0.007 0-0.010 0-46.078 0-83.43-37.352-83.43-83.43s37.352-83.43 83.43-83.43c46.078 0 83.43 37.352 83.43 83.43 0 0.004 0 0.007 0 0.011v-0.001c0 0.003 0 0.007 0 0.010 0 46.066-37.343 83.409-83.409 83.409-0.004 0-0.007 0-0.011 0h0.001z" />
<glyph unicode="&#x68;" glyph-name="mail" horiz-adv-x="1397" d="M1324.955 857.735c45.853 0 60.898-15.046 60.898-61.615 0-292.789 0-585.817 0-878.606 0-46.808-14.806-61.615-60.659-61.615-418.884 0-837.53 0-1256.414 0-46.092 0-60.659 14.568-60.659 61.615 0 292.789 0 585.817 0 878.606 0 47.764 14.329 61.615 62.808 61.615zM172.187 762.686c177.68-173.62 351.061-342.941 524.919-512.5 175.053 171.231 348.195 340.313 524.441 512.5-351.777 0-697.822 0-1049.361 0zM168.127-47.857c354.165 0 704.032 0 1057.48 0-114.871 119.169-226.637 235.235-345.807 358.702-49.196-52.779-95.526-103.885-144.245-152.842-10.508-10.508-28.658-17.911-43.464-18.15-11.941-0.239-26.509 10.031-36.3 19.344-49.913 47.524-98.631 96.005-148.544 145.201-112.96-117.498-224.487-233.324-339.119-352.255zM102.452 19.728c114.632 118.692 225.681 233.563 337.926 349.867-113.2 110.095-224.010 218.040-337.926 328.85 0-228.070 0-450.408 0-678.717zM1291.52 698.683c-114.632-111.527-225.921-219.95-337.926-329.089 113.2-117.020 224.010-231.652 337.926-349.627 0 228.309 0 450.885 0 678.717z" />
<glyph unicode="&#x69;" glyph-name="instagram" horiz-adv-x="763" d="M603.030 645.18c30.067-3.34 50.115-30.067 53.455-63.479v-434.324c-6.683-30.067-33.411-53.454-63.479-53.454h-430.983c-26.727 6.683-46.774 23.387-53.455 50.115-3.339 3.339-3.339 6.683-3.339 10.024v434.324c3.339 23.387 23.387 46.774 46.774 53.454 3.34 3.34 10.024 3.34 13.364 3.34h437.665zM379.186 478.132c-56.795 0-103.57-46.774-106.91-106.91 0-60.139 50.115-106.91 106.91-106.91 60.138 0 106.91 46.774 106.91 106.91s-50.116 106.91-106.91 106.91zM382.527 200.832c-92.094 0-172.008 76.682-172.008 168.27 0 14.042 1.672 28.227 4.961 42.21h-46.775v-230.526c3.34-10.024 13.364-20.047 23.388-20.047h384.21c10.024 0 16.703 10.024 16.703 20.047v233.866h-46.774c3.819-15.273 5.729-30.546 5.729-45.504 0-37.402-11.934-72.859-35.796-101.496-30.067-43.431-80.183-66.819-133.638-66.819zM593.007 498.178v60.138c0 10.024-10.024 20.047-20.047 20.047h-63.479c-10.024 0-20.047-10.024-20.047-20.047v-63.478c0-10.024 10.024-20.047 20.047-20.047h63.479c10.024 3.339 20.047 13.363 20.047 23.387z" />
<glyph unicode="&#x6b;" glyph-name="ku-logo" horiz-adv-x="562" d="M557.416 548.122c0-113.855-92.35-206.104-206.004-206.104-113.955 0-206.205 92.25-206.205 206.104s92.25 206.305 206.205 206.305c113.655 0 206.004-92.45 206.004-206.305zM197.864 247.155c0-53.964-43.815-97.775-97.775-97.775s-97.775 43.815-97.775 97.775c0 54.065 43.815 97.775 97.775 97.775 54.065 0 97.775-43.815 97.775-97.775zM402.562 37.735c0-28.135-23.010-51.050-51.050-51.050-28.135 0-51.15 22.81-51.15 51.050s22.91 51.050 51.15 51.050c27.935 0 51.050-22.91 51.050-51.050z" />
<glyph unicode="&#x6c;" glyph-name="linkedin2" horiz-adv-x="613" d="M27.722 78.392v387.824h119.958v-387.824h-119.958zM87.119 660.71c37.267 0 71.042-30.281 71.042-71.042s-30.281-71.042-71.042-71.042-71.042 30.281-71.042 71.042 33.775 71.042 71.042 71.042zM222.216 78.392l-4.661 387.824h116.465v-52.408c20.961 38.432 60.561 64.054 105.981 64.054h9.317c123.451 0 145.581-81.525 145.581-186.342v-213.129h-118.794v186.342c0 48.917-4.661 104.817-64.054 104.817s-71.042-48.917-71.042-101.325v-189.836h-118.794z" />
<glyph unicode="&#x6d;" glyph-name="radio-button" horiz-adv-x="961" d="M485.372 1.655h-10.25c-55.621 0-109.724 10.822-160.696 32.174-49.168 20.597-93.398 50.117-131.554 87.703-38.062 37.589-68.15 81.438-89.506 130.321-21.924 50.496-33.508 104.218-34.264 159.746v0.95c0.76 55.621 12.34 109.536 34.36 160.22 21.263 48.978 51.35 92.828 89.412 130.509s82.388 67.2 131.554 87.798c50.876 21.357 104.979 32.174 160.599 32.174h5.41v-0.094h4.937c55.621 0 109.724-10.822 160.696-32.174 49.168-20.597 93.398-50.117 131.554-87.703 38.062-37.589 68.15-81.438 89.412-130.321 22.019-50.59 33.603-104.316 34.36-159.84v-0.95c-0.76-55.621-12.34-109.536-34.36-160.126-21.263-48.978-51.35-92.828-89.412-130.415-38.156-37.683-82.388-67.2-131.554-87.798-50.971-21.357-104.979-32.174-160.696-32.174zM123.833 412.075c1.421-92.544 38.539-179.393 104.505-244.411 66.158-65.304 153.768-101.184 246.69-101.184h10.25c92.923 0 180.532 35.972 246.69 101.279 65.965 65.208 103.081 152.152 104.599 244.981-1.421 92.544-38.634 179.393-104.505 244.411-66.158 65.304-153.768 101.184-246.69 101.184h-5.125v0.094h-5.219c-92.923 0-180.532-35.972-246.596-101.279-66.061-65.208-103.176-152.247-104.599-245.075z" />
<glyph unicode="&#x6f;" glyph-name="conversation" horiz-adv-x="672" d="M650.012 379.327v-10.29c0-112.162-92.61-203.745-204.774-203.745h-145.091c-43.218 0-85.407 12.348-121.423 39.102l-158.468-49.392 109.075 101.871c-22.638 32.928-32.928 73.059-32.928 112.162v10.29c0 112.162 91.581 204.774 203.745 204.774h151.265c112.162 0 198.6-91.581 198.6-204.774zM445.238 507.954h-148.178c-59.682 0-109.075-49.392-109.075-109.075v-46.305c0-62.769 49.392-112.162 112.162-112.162h149.207c62.769 0 108.046 49.392 108.046 112.162v46.305c0 59.682-49.392 109.075-112.162 109.075z" />
<glyph unicode="&#x70;" glyph-name="phone" horiz-adv-x="530" d="M114.063 673.111h293.269c22.638 0 43.218-20.58 46.305-43.218v-520.68c0-22.638-19.551-43.218-43.218-43.218h-293.269c-20.58 0-43.218 19.551-43.218 43.218v520.68c0 22.638 17.493 43.218 40.131 43.218zM295.17 102.008c10.29 0 13.377 9.261 13.377 19.551v17.493c3.087 10.29-3.087 16.464-13.377 19.551h-62.769c-10.29 0-13.377-9.261-13.377-19.551v-17.493c-3.087-10.29 3.087-16.464 13.377-19.551h62.769zM136.701 214.17h251.079v396.171h-251.079v-396.171z" />
<glyph unicode="&#x71;" glyph-name="quote" horiz-adv-x="562" d="M0.805 732.319c0 0-0.2-143.399 0.2-209.019 0.2-36.68-0.5-73.459 11.455-109.131 20.6-61.5 64.815-99.685 122.195-125.010 32.56-14.37 66.925-21.505 102.4-23.915 2.010-0.1 4.020 0.3 6.735 0.5 0 38.488 0 76.473 0 114.76-14.77 3.015-30.145 4.52-44.315 9.545-16.28 5.73-32.359 13.065-46.83 22.41-24.62 15.775-37.585 46.728-34.265 76.574l126.415 0.2v243.084h-243.989zM315.738 732.319c0 0-0.2-143.399 0.2-209.019 0.2-36.68-0.5-73.459 11.455-109.131 20.6-61.5 64.815-99.685 122.195-125.010 32.56-14.37 66.925-21.505 102.4-23.915 2.010-0.1 4.020 0.3 6.735 0.5 0 38.488 0 76.473 0 114.76-14.77 3.015-30.145 4.52-44.315 9.545-16.28 5.73-32.359 13.065-46.83 22.41-24.62 15.775-37.585 46.728-34.265 76.574h126.415v243.286h-243.989z" />
<glyph unicode="&#x72;" glyph-name="rss" horiz-adv-x="779" d="M189.781 240.925c39.102 0 72.030-32.928 72.030-72.030s-32.928-73.059-72.030-73.059-73.059 33.957-73.059 73.059 33.957 72.030 73.059 72.030zM297.828 276.94c-48.363 48.363-110.104 75.117-178.020 76.146v105.988c197.571-3.087 360.155-165.671 360.155-363.242h-105.988c0 68.943-26.754 131.714-76.146 181.107zM116.722 537.281v105.988c300.472-3.087 544.35-246.963 544.35-547.437h-105.988c0 243.876-194.484 441.447-438.36 441.447z" />
<glyph unicode="&#x73;" glyph-name="radio-button-active" horiz-adv-x="961" d="M485.372 1.655h-10.25c-55.621 0-109.724 10.822-160.696 32.174-49.168 20.597-93.398 50.117-131.554 87.703-38.062 37.589-68.15 81.438-89.506 130.321-21.924 50.496-33.508 104.218-34.264 159.746v0.95c0.76 55.621 12.34 109.536 34.36 160.22 21.263 48.978 51.35 92.828 89.412 130.509s82.388 67.2 131.554 87.798c50.876 21.357 104.979 32.174 160.599 32.174h5.41v-0.094h4.937c55.621 0 109.724-10.822 160.696-32.174 49.168-20.597 93.398-50.117 131.554-87.703 38.062-37.589 68.15-81.438 89.412-130.321 22.019-50.59 33.603-104.316 34.36-159.84v-0.95c-0.76-55.621-12.34-109.536-34.36-160.126-21.263-48.978-51.35-92.828-89.412-130.415-38.156-37.683-82.388-67.2-131.554-87.798-50.971-21.357-104.979-32.174-160.696-32.174zM123.833 412.075c1.421-92.544 38.539-179.393 104.505-244.411 66.158-65.304 153.768-101.184 246.69-101.184h10.25c92.923 0 180.532 35.972 246.69 101.279 65.965 65.208 103.081 152.152 104.599 244.981-1.421 92.544-38.634 179.393-104.505 244.411-66.158 65.304-153.768 101.184-246.69 101.184h-5.125v0.094h-5.219c-92.923 0-180.532-35.972-246.596-101.279-66.061-65.208-103.176-152.247-104.599-245.075zM479.012 539.739c67.961-2.087 122.252-57.614 122.252-125.861 0-69.575-56.381-125.861-125.861-125.861s-125.861 56.381-125.861 125.861v0c1.045 69.763 57.802 125.861 127.664 125.861 0.666 0 1.327 0 2.087 0h-0.282z" />
<glyph unicode="&#x74;" glyph-name="twitter" horiz-adv-x="828" d="M742.305 591.176c-16.464-26.754-39.102-49.392-68.943-65.856v-16.464c0-73.059-20.58-140.975-59.682-200.658-68.943-107.017-184.194-164.642-302.53-164.642-67.914 0-136.859 18.522-198.6 58.653 11.319-2.058 23.667-2.058 34.986-2.058 56.595 0 112.162 18.522 156.41 54.537-52.479 0-101.871 37.044-118.336 89.523 8.232-1.029 15.435-2.058 23.667-2.058 11.319 0 23.667 1.029 34.986 5.145-59.682 13.377-101.871 65.856-101.871 128.626 19.551-10.29 40.131-16.464 59.682-16.464-37.044 25.725-56.595 65.856-56.595 107.017 0 21.609 5.145 44.247 16.464 64.827 65.856-82.32 161.555-129.655 263.428-135.83-2.058 9.261-3.087 19.551-3.087 28.812 0 34.986 14.406 69.972 40.131 93.639 25.725 22.638 56.595 33.957 88.494 33.957 33.957 0 66.885-14.406 92.61-41.16 29.841 3.087 55.566 13.377 82.32 29.841-10.29-29.841-28.812-52.479-55.566-68.943 22.638 3.087 49.392 9.261 72.030 19.551z" />
<glyph unicode="&#x75;" glyph-name="futurity" horiz-adv-x="774" d="M293.257 523.389c-9.261 3.087-16.464-3.087-16.464-9.261l-137.888-202.716c-3.087-3.087-10.29-6.174-16.464-6.174h-83.349c0 3.087 3.087 3.087 3.087 6.174l257.253 382.793c3.087 3.087 6.174 6.174 9.261 6.174h209.919c0-6.174-4.116-6.174-4.116-9.261l-105.988-160.526c-3.087-3.087-9.261-7.203-15.435-7.203h-99.813zM518.61 266.135c-3.087-6.174-10.29-6.174-13.377-6.174h-102.9c-6.174 0-12.348-3.087-15.435-9.261-16.464-25.725-31.899-48.363-48.363-74.088-3.087-3.087-7.203-6.174-10.29-6.174h-89.523l6.174 9.261c54.537 80.262 109.075 164.642 163.613 244.905 3.087 6.174 10.29 9.261 16.464 9.261h205.803l-6.174-9.261c-34.986-51.45-71.001-107.017-105.988-158.468zM530.96 167.35c0 0 196.68 0 196.68 2.951 0 0.045-0.045 0.090-0.137 0.136h6.174l-31.899-48.363c-16.464-25.725-34.986-51.45-51.45-77.175 0-3.087-7.203-6.174-10.29-6.174h-205.803c27.783 40.131 56.595 80.262 84.378 121.423 3.087 3.087 6.174 7.203 12.348 7.203z" />
<glyph unicode="&#x76;" glyph-name="video" horiz-adv-x="500" d="M106.391 629.378c12.348 0 28.812-5.145 46.305-16.464 101.871-62.769 207.861-128.626 309.733-194.484 24.696-16.464 37.044-32.928 37.044-48.363s-12.348-30.87-37.044-47.334c-101.871-65.856-206.832-131.714-312.82-197.571-16.464-9.261-30.87-15.435-42.189-15.435-23.667 0-37.044 19.551-37.044 57.624v204.774c-3.087 65.856-3.087 128.626-3.087 194.484 0 41.16 14.406 62.769 39.102 62.769z" />
<glyph unicode="&#x78;" glyph-name="Absalon" horiz-adv-x="1032" d="M547.112-27.939c-90.661 12.053-104.811 36.422-124.201 52.405v22.010l225.081-43.758c3.727-0.896 8.005-1.409 12.404-1.409 20.343 0 38.121 10.987 47.721 27.352l0.141 0.26c3.663 6.969 5.812 15.227 5.812 23.988 0 25.999-18.933 47.576-43.763 51.696l-0.305 0.042-318.624 66.817c-38.518 22.010-252.594-60.266-323.865-93.281-15.477-6.228-26.203-21.117-26.203-38.51 0-0.003 0-0.006 0-0.008v0-126.297c-0.003-0.168-0.004-0.367-0.004-0.567 0-22.286 18.066-40.352 40.352-40.352 5.183 0 10.138 0.977 14.69 2.757l-0.274-0.094 142.805 54.764 230.845-71.271c20.696-11.943 45.519-18.989 71.987-18.989 9.475 0 18.74 0.903 27.712 2.628l-0.915-0.146 471.648 131.013c17.42 5.4 30.342 20.163 32.985 38.263l0.031 0.255c0.026 0.548 0.042 1.191 0.042 1.837 0 22.431-18.184 40.614-40.614 40.614-5.892 0-11.492-1.255-16.545-3.512l0.258 0.103-290.063-74.94c-22.301-8.44-48.083-13.326-75.006-13.326-22.887 0-44.95 3.531-65.673 10.079l1.543-0.42zM897.703 628.7h-633.318c-60.266 0-112.933 43.496-112.933 93.019v48.999c0 52.405 49.523 93.281 112.933 93.281h633.318v-36.422h-35.112l-3.144-6.289 15.198-26.203-14.936-26.203 14.936-26.203-14.936-26.203 14.936-26.203-15.198-26.203 3.144-6.289h35.112zM264.385 838.321c-47.951 0-86.731-30.657-86.731-67.603v-50.047c0-30.919 38.78-65.769 86.731-65.769h573.838l-8.647 17.556 15.722 23.32-15.198 26.203 15.198 26.203-15.198 26.203 15.198 26.203-14.673 24.368 7.599 13.363zM997.535 285.969h-842.94c-87.255 0-153.286 44.282-153.286 102.976v55.026c0 56.86 68.651 103.238 153.286 103.238h842.94v-56.336h-47.427l-4.979-6.551 20.176-26.203-19.914-26.203 19.914-24.893-19.914-26.203 19.914-24.893-20.176-26.203 4.979-6.813h46.641zM154.596 521.793c-68.913 0-127.083-35.374-127.083-77.036v-55.026c0-42.972 55.812-76.774 127.083-76.774h774.813l-16.508 22.272 19.652 24.631-19.914 24.893 19.914 26.203-19.914 24.893 19.914 26.203-19.652 24.631 26.203 33.277h33.539v3.93z" />
<glyph unicode="&#x79;" glyph-name="youtube" horiz-adv-x="722" d="M614.708 349.228v-6.174c0-36.015-4.116-73.059-7.203-112.162-3.087-32.928-29.841-56.595-62.769-59.682-19.551-3.087-111.133-6.174-184.194-6.174s-164.642 3.087-184.194 6.174c-32.928 3.087-56.595 26.754-59.682 59.682-3.087 36.015-7.203 73.059-7.203 112.162v6.174c0 36.015 4.116 73.059 7.203 112.162 3.087 32.928 29.841 56.595 62.769 59.682 19.551 3.087 111.133 7.203 184.194 7.203s165.671-4.116 185.223-7.203c32.928-3.087 56.595-26.754 62.769-59.682 0-39.102 3.087-76.146 3.087-112.162zM472.704 349.228l-188.31 99.813v-201.687z" />
</font>
</defs>
</svg>
